<svg xmlns="http://www.w3.org/2000/svg">
<defs>
<font
        id="font898"
        horiz-adv-x="0"
      ><font-face
          id="font-face900"
          font-family="fnt2"
          ascent="965"
          units-per-em="2048"
          descent="-235"
      />
<missing-glyph
          id="missing-glyph902"
          horiz-adv-x="1.1346e-306"
      />
<glyph
          id="glyph904"
          unicode=" "
          horiz-adv-x="555"
          d="M0 0 Z"
      />
<glyph
          id="glyph906"
          unicode="E"
          horiz-adv-x="1583"
          d="M76,0L76,47Q197,47,231,74Q266,101,266,190L266,1298Q266,1387,231,1414Q197,1442,76,1442L76,1489L1294,1489L1458,1092L1413,1092Q1335,1182,1273,1243Q1212,1305,1167,1337Q1122,1370,1083,1390Q1045,1411,1008,1423Q978,1433,930,1437Q882,1442,815,1442L637,1442Q588,1442,573,1433Q559,1424,559,1389L559,1346L559,795L698,795Q885,795,985,865Q1085,936,1114,1087L1157,1087L1157,403L1114,403Q1102,575,999,658Q897,741,698,741L559,741L559,195Q559,84,579,65Q600,47,698,47L852,47Q1052,47,1187,136Q1323,225,1444,438L1489,434L1370,0L76,0 Z"
      />
<glyph
          id="glyph908"
          unicode="I"
          horiz-adv-x="901"
          d="M807,1489L807,1442L784,1442Q668,1442,633,1414Q598,1387,598,1298L598,190Q598,102,633,74Q668,47,784,47L807,47L807,0L94,0L94,47L117,47Q234,47,268,74Q303,102,303,190L303,1298Q303,1388,269,1415Q235,1442,115,1442L115,1489L807,1489 Z"
      />
<glyph
          id="glyph910"
          unicode="L"
          horiz-adv-x="1554"
          d="M872,47Q1073,47,1208,136Q1344,225,1464,438L1509,434L1391,0L76,0L76,47Q197,47,231,74Q266,101,266,190L266,1298Q266,1387,231,1414Q197,1442,76,1442L76,1489L750,1489L750,1442Q629,1442,594,1414Q559,1387,559,1298L559,195Q559,84,579,65Q600,47,698,47L872,47 Z"
      />
<glyph
          id="glyph912"
          unicode="N"
          horiz-adv-x="1886"
          d="M332,1343L332,342Q332,180,381,115Q430,51,551,47L551,0L53,0L53,47Q166,63,211,127Q256,192,256,342L256,1282Q256,1387,223,1413Q191,1440,76,1440L53,1440L53,1489L618,1489L1565,426L1565,1147Q1565,1309,1515,1373Q1466,1437,1346,1442L1346,1489L1843,1489L1843,1442Q1730,1426,1685,1361Q1640,1297,1640,1147L1640,-29L1554,-29L332,1343 Z"
      />
<glyph
          id="glyph914"
          unicode="b"
          horiz-adv-x="1128"
          d="M162,1192Q162,1282,136,1312Q111,1342,33,1352L33,1395Q113,1409,199,1437Q285,1465,379,1507L379,815Q443,873,513,901Q583,930,662,930Q837,930,947,798Q1057,667,1057,453Q1057,238,929,103Q801,-31,596,-31Q514,-31,439,-9Q365,12,297,55L266,55L205,-18L162,-18L162,1192M383,172Q419,96,475,56Q532,16,602,16Q704,16,763,109Q823,203,823,367Q823,550,740,668Q657,786,535,786Q494,786,456,770Q419,754,383,721L383,172 Z"
      />
<glyph
          id="glyph916"
          unicode="d"
          horiz-adv-x="1118"
          d="M739,729Q703,805,647,845Q592,885,522,885Q420,885,360,791Q301,697,301,535Q301,339,380,220Q460,102,588,102Q628,102,665,118Q703,135,739,168L739,729M739,1233Q739,1323,714,1352Q690,1381,612,1391L612,1436Q723,1455,805,1472Q887,1490,958,1507L958,223Q958,133,983,104Q1008,76,1085,66L1085,20Q1025,11,907,-5Q790,-21,739,-28L739,86Q675,28,606,0Q537,-29,459,-29Q283,-29,172,103Q61,235,61,449Q61,655,187,794Q313,934,500,934Q566,934,626,915Q686,897,739,860L739,1233 Z"
      />
<glyph
          id="glyph918"
          unicode="e"
          horiz-adv-x="1024"
          d="M305,612L612,612Q672,612,696,623Q721,634,721,659Q721,754,667,816Q613,879,530,879Q428,879,370,810Q313,742,305,612M940,332L971,309Q890,134,779,52Q668,-29,510,-29Q314,-29,187,100Q61,229,61,426Q61,638,197,784Q334,930,532,930Q713,930,828,829Q943,729,963,553L299,553Q299,547,298,534Q297,522,297,516Q297,357,386,259Q476,162,621,162Q716,162,792,202Q868,242,940,332 Z"
      />
<glyph
          id="glyph920"
          unicode="l"
          horiz-adv-x="569"
          d="M184,1192Q184,1283,159,1312Q134,1342,55,1352L55,1395Q137,1409,223,1437Q309,1465,403,1507L403,164Q403,87,426,67Q450,47,520,47L532,47L532,0L55,0L55,47L68,47Q138,47,161,68Q184,90,184,164L184,1192 Z"
      />
<glyph
          id="glyph922"
          unicode="m"
          horiz-adv-x="1839"
          d="M1042,164Q1042,88,1064,67Q1087,47,1153,47L1165,47L1165,0L698,0L698,47L709,47Q774,47,795,67Q817,87,817,164L817,616Q817,713,768,768Q719,823,633,823Q570,823,512,787Q454,751,403,680L403,164Q403,87,426,67Q450,47,520,47L532,47L532,0L55,0L55,47L68,47Q138,47,161,68Q184,90,184,164L184,614Q184,705,159,733Q134,762,55,772L55,817Q137,832,223,859Q309,887,403,930L403,770Q498,853,581,891Q664,930,750,930Q848,930,916,885Q985,841,1020,754Q1119,845,1207,887Q1296,930,1384,930Q1526,930,1599,843Q1673,756,1673,588L1673,164Q1673,88,1695,67Q1718,47,1784,47L1794,47L1794,0L1327,0L1327,47L1337,47Q1402,47,1424,67Q1446,88,1446,164L1446,616Q1446,713,1397,768Q1348,823,1264,823Q1201,823,1143,785Q1085,748,1042,680L1042,164 Z"
      />
<glyph
          id="glyph924"
          unicode="n"
          horiz-adv-x="1241"
          d="M403,164Q403,87,426,67Q450,47,520,47L532,47L532,0L55,0L55,47L68,47Q138,47,161,68Q184,90,184,164L184,614Q184,705,159,733Q134,762,55,772L55,817Q137,832,223,859Q309,887,403,930L403,770Q504,853,591,891Q679,930,768,930Q919,930,997,843Q1075,756,1075,588L1075,164Q1075,87,1098,67Q1121,47,1192,47L1204,47L1204,0L719,0L719,47L731,47Q802,47,825,67Q848,87,848,164L848,616Q848,714,795,768Q742,823,649,823Q582,823,519,787Q457,751,403,680L403,164 Z"
      />
<glyph
          id="glyph926"
          unicode="p"
          horiz-adv-x="1146"
          d="M403,172Q440,96,495,56Q551,16,621,16Q723,16,782,109Q842,203,842,367Q842,550,758,668Q675,786,553,786Q513,786,476,770Q440,755,403,721L403,172M403,-225Q403,-302,426,-322Q450,-342,520,-342L532,-342L532,-389L55,-389L55,-342L68,-342Q138,-342,161,-322Q184,-302,184,-225L184,614Q184,705,159,733Q134,762,55,772L55,817Q137,832,223,859Q309,887,403,930L403,815Q468,873,537,901Q606,930,684,930Q860,930,970,798Q1081,666,1081,453Q1081,246,955,106Q830,-33,643,-33Q577,-33,517,-14Q457,4,403,41L403,-225 Z"
      />
<glyph
          id="glyph928"
          unicode="r"
          horiz-adv-x="901"
          d="M403,672Q490,807,570,868Q651,930,739,930Q812,930,856,891Q901,852,901,788Q901,734,867,699Q834,664,782,664Q740,664,668,698Q597,733,567,733Q521,733,478,684Q436,636,403,547L403,164Q403,86,427,66Q451,47,532,47L569,47L569,0L55,0L55,47L68,47Q138,47,161,67Q184,87,184,164L184,614Q184,705,159,733Q134,762,55,772L55,817Q137,832,223,859Q309,887,403,930L403,672 Z"
      />
<glyph
          id="glyph930"
          unicode="s"
          horiz-adv-x="901"
          d="M129,41L109,362L152,365Q204,193,284,108Q364,23,473,23Q542,23,581,58Q621,94,621,156Q621,257,428,352Q415,359,407,363Q206,465,155,524Q104,584,104,668Q104,781,199,855Q294,930,442,930Q536,930,613,914Q690,899,756,866L776,594L737,588Q682,735,606,809Q531,883,436,883Q375,883,335,847Q295,812,295,760Q295,673,527,570Q568,553,590,543Q716,486,769,420Q823,355,823,262Q823,129,722,49Q622,-31,453,-31Q379,-31,299,-13Q219,5,129,41 Z"
      />
<glyph
          id="glyph932"
          unicode="u"
          horiz-adv-x="1241"
          d="M840,737Q840,814,817,834Q794,854,723,854L711,854L711,909L1057,909L1057,287Q1057,197,1082,167Q1108,137,1186,127L1186,84Q1106,69,1020,41Q934,14,840,-29L840,127Q740,47,651,9Q563,-29,473,-29Q322,-29,244,58Q166,145,166,313L166,737Q166,814,143,834Q120,854,49,854L37,854L37,909L393,909L393,283Q393,186,445,132Q498,78,592,78Q661,78,724,114Q787,150,840,219L840,737 Z"
      />
<glyph
          id="glyph934"
          unicode="v"
          horiz-adv-x="1081"
          d="M573,-29L514,-29L178,692Q173,703,164,723Q106,851,0,862L0,909L514,909L514,862Q428,856,407,845Q387,834,387,807Q387,786,394,760Q401,735,416,705L635,238L852,711Q864,736,869,753Q874,771,874,784Q874,815,854,830Q835,846,760,862L760,909L1073,909L1073,862Q1019,850,982,812Q945,774,905,686L573,-29 Z"
      />
<glyph
          id="glyph936"
          unicode="x"
          horiz-adv-x="1118"
          d="M877,193Q935,112,982,81Q1030,51,1090,51L1110,51L1110,0L528,0L529,47Q585,49,615,63Q645,77,645,102Q645,130,618,167Q616,170,614,173L485,348L309,152Q295,136,289,123Q283,111,283,98Q283,77,301,64Q320,52,358,47L358,0L23,0L23,47Q94,55,152,89Q210,123,281,203L453,395L244,680Q236,690,222,710Q114,857,23,862L23,909L545,909L544,862Q490,861,465,849Q440,838,440,815Q440,798,447,781Q454,765,475,735L602,563L750,729Q775,758,786,776Q797,795,797,809Q797,828,773,842Q749,856,707,862L707,909L1085,909L1085,862L1075,862Q1003,862,943,829Q884,796,793,694L635,518L877,193 Z"
      />
</font
    >
<font
        id="font938"
        horiz-adv-x="0"
      ><font-face
          id="font-face940"
          font-family="fnt0"
          ascent="962"
          units-per-em="2048"
          descent="-235"
      />
<missing-glyph
          id="missing-glyph942"
          horiz-adv-x="1.1346e-306"
      />
<glyph
          id="glyph944"
          unicode=" "
          horiz-adv-x="516"
          d="M0 0 Z"
      />
<glyph
          id="glyph946"
          unicode="+"
          horiz-adv-x="1705"
          d="M795,1221L913,1221L913,670L1452,670L1452,553L913,553L913,0L795,0L795,553L254,553L254,670L795,670L795,1221 Z"
      />
<glyph
          id="glyph948"
          unicode=","
          horiz-adv-x="516"
          d="M166,-274Q248,-201,282,-150Q317,-100,317,-57Q317,-18,255,3Q238,9,230,12Q177,31,152,60Q127,89,127,129Q127,174,157,201Q188,229,238,229Q309,229,356,169Q403,110,403,18Q403,-72,352,-152Q302,-233,199,-309L166,-274 Z"
      />
<glyph
          id="glyph950"
          unicode="-"
          horiz-adv-x="673"
          d="M84,379L84,516L588,516L588,379L84,379 Z"
      />
<glyph
          id="glyph952"
          unicode="."
          horiz-adv-x="516"
          d="M137,109Q137,161,171,195Q206,229,258,229Q309,229,344,194Q379,159,379,109Q379,59,343,23Q307,-12,258,-12Q208,-12,172,23Q137,59,137,109 Z"
      />
<glyph
          id="glyph954"
          unicode="/"
          horiz-adv-x="567"
          d="M82,-190L-35,-190L467,1446L582,1446L82,-190 Z"
      />
<glyph
          id="glyph956"
          unicode="0"
          horiz-adv-x="1034"
          d="M516,20Q638,20,701,188Q764,357,764,682Q764,1007,701,1176Q638,1346,516,1346Q395,1346,331,1176Q268,1007,268,682Q268,359,331,189Q394,20,514,20L516,20M954,670Q954,363,830,169Q706,-25,516,-25Q323,-25,201,170Q80,365,80,682Q80,999,202,1195Q324,1391,516,1391Q710,1391,832,1193Q954,995,954,670 Z"
      />
<glyph
          id="glyph958"
          unicode="1"
          horiz-adv-x="1034"
          d="M246,0L246,43Q370,46,405,66Q440,86,440,180L440,1036Q440,1107,421,1122Q403,1137,338,1137L233,1137L233,1186Q333,1208,415,1256Q497,1305,578,1391L616,1391L616,184Q616,92,642,73Q668,55,791,43L791,0L246,0 Z"
      />
<glyph
          id="glyph960"
          unicode="2"
          horiz-adv-x="1034"
          d="M109,0L109,27Q109,174,307,429Q357,494,383,528L551,754Q632,864,666,938Q700,1013,700,1075Q700,1160,646,1216Q592,1272,512,1272Q411,1272,324,1200Q238,1129,141,965L106,979Q204,1189,324,1291Q445,1393,596,1393Q729,1393,812,1315Q895,1238,895,1116Q895,972,671,735L655,719L412,459Q332,374,282,302Q232,231,203,162L717,162Q780,162,814,190Q849,218,881,295L922,295L782,-109L745,-109L745,-88Q745,-34,725,-17Q706,0,604,0L109,0 Z"
      />
<glyph
          id="glyph962"
          unicode="3"
          horiz-adv-x="1034"
          d="M375,668Q547,854,596,936Q645,1019,645,1090Q645,1170,596,1219Q547,1268,465,1268Q404,1268,339,1232Q274,1196,193,1116L162,1141Q280,1278,372,1336Q464,1395,557,1395Q659,1395,722,1335Q786,1275,786,1180Q786,1086,731,998Q677,910,557,813Q720,799,813,702Q907,605,907,449Q907,257,771,117Q635,-23,440,-23Q292,-23,189,39Q86,101,86,182Q86,214,109,236Q132,258,164,258Q198,258,221,238Q244,218,279,147Q308,83,353,53Q399,23,465,23Q582,23,662,126Q743,230,743,383Q743,524,653,596Q564,668,389,668L375,668 Z"
      />
<glyph
          id="glyph964"
          unicode="5"
          horiz-adv-x="1034"
          d="M232,750L283,1366L707,1366Q765,1366,786,1380Q807,1395,819,1434L860,1434L772,1208L319,1208L295,920L338,920Q606,920,752,798Q899,677,899,455Q899,246,767,111Q636,-23,428,-23Q295,-23,192,34Q90,91,90,158Q90,189,113,209Q136,229,170,229Q197,229,218,213Q240,198,260,164Q305,87,350,59Q396,31,467,31Q594,31,674,126Q754,221,754,373Q754,556,636,654Q519,752,297,752Q270,752,257,751Q244,751,232,750 Z"
      />
<glyph
          id="glyph966"
          unicode="6"
          horiz-adv-x="1034"
          d="M279,406Q279,231,345,127Q411,23,520,23Q639,23,716,131Q793,240,793,414Q793,566,716,662Q639,758,518,758Q404,758,341,666Q279,574,279,406M308,697Q367,764,432,795Q497,827,575,827Q744,827,855,711Q967,596,967,420Q967,232,842,102Q718,-27,545,-27Q355,-27,228,138Q102,304,102,559Q102,870,290,1098Q479,1326,793,1395L805,1358Q596,1304,456,1118Q317,933,308,697 Z"
      />
<glyph
          id="glyph968"
          unicode="7"
          horiz-adv-x="1034"
          d="M831,1208L346,1208Q270,1208,250,1193Q230,1179,211,1122L190,1059L143,1059L260,1438L297,1438Q296,1432,294,1422Q293,1412,293,1409Q293,1385,309,1375Q325,1366,383,1366L932,1366L932,1315L518,151Q509,125,493,77Q446,-70,377,-70Q341,-70,320,-50Q299,-30,299,4Q299,61,497,477Q695,893,831,1208 Z"
      />
<glyph
          id="glyph970"
          unicode="8"
          horiz-adv-x="1034"
          d="M598,807Q699,885,739,951Q780,1017,780,1100Q780,1215,714,1282Q649,1350,537,1350Q426,1350,355,1285Q285,1221,285,1122Q285,1033,348,966Q412,899,598,807M397,713Q274,774,212,858Q150,942,150,1044Q150,1197,264,1295Q378,1393,561,1393Q713,1393,815,1310Q918,1228,918,1110Q918,1006,856,934Q795,863,637,788L729,737Q837,678,890,594Q944,511,944,399Q944,218,823,96Q702,-25,520,-25Q346,-25,227,79Q109,183,109,332Q109,456,179,549Q250,643,397,713M446,690Q350,622,298,529Q246,436,246,332Q246,199,327,112Q408,25,530,25Q656,25,730,112Q805,199,805,348Q805,434,755,495Q705,557,557,633L446,690 Z"
      />
<glyph
          id="glyph972"
          unicode="?"
          horiz-adv-x="786"
          d="M258,381L259,852Q466,854,545,898Q625,942,625,1051Q625,1140,577,1185Q530,1231,414,1249Q397,1252,366,1256Q209,1278,209,1352Q209,1393,239,1417Q269,1442,319,1442Q445,1442,562,1315Q680,1188,680,1032Q680,864,593,784Q506,705,315,698L305,381L258,381M158,96Q158,147,192,181Q227,215,279,215Q330,215,364,181Q399,147,399,96Q399,49,362,12Q326,-25,279,-25Q229,-25,193,11Q158,47,158,96 Z"
      />
<glyph
          id="glyph974"
          unicode="B"
          horiz-adv-x="1263"
          d="M90,1L90,49L102,49Q186,49,213,71Q240,93,240,199L240,209L240,1233Q240,1330,214,1351Q188,1372,104,1372L90,1372L90,1421Q189,1422,326,1424Q464,1427,502,1427Q806,1427,945,1340Q1085,1253,1085,1065Q1085,959,1026,882Q967,806,850,762Q1005,740,1096,645Q1188,551,1188,416Q1188,201,1027,96Q867,-8,537,-8Q479,-8,277,-4Q158,-1,90,1M449,752L494,752Q689,752,790,829Q891,906,891,1055Q891,1210,792,1294Q693,1378,510,1378Q485,1378,472,1377Q459,1377,449,1376L449,752M449,176Q449,102,485,72Q521,43,616,43Q782,43,873,130Q965,217,965,375Q965,554,874,630Q784,707,563,707L449,707L449,176 Z"
      />
<glyph
          id="glyph976"
          unicode="E"
          horiz-adv-x="1323"
          d="M113,0L113,47Q208,50,235,70Q262,90,262,182L262,209L262,1233Q262,1330,236,1351Q211,1372,127,1372L113,1372L113,1421L1141,1421L1243,1096L1200,1079Q1133,1186,1089,1237Q1046,1289,1001,1321Q960,1350,897,1362Q834,1374,680,1374L647,1374L471,1374L471,750Q500,749,526,748Q553,748,578,748Q763,748,829,802Q895,857,915,1010L950,1010L950,440L915,440Q894,592,829,646Q764,700,578,700L471,700L471,201Q471,105,503,76Q535,47,639,47L764,47Q941,47,1031,105Q1121,164,1255,383L1294,371L1219,0L113,0 Z"
      />
<glyph
          id="glyph978"
          unicode="H"
          horiz-adv-x="1677"
          d="M113,1421L639,1421L639,1374L598,1374Q517,1374,494,1353Q471,1333,471,1251L471,758L1206,758L1206,1251Q1206,1370,1060,1374Q1046,1374,1038,1374L1038,1421L1567,1421L1567,1372L1552,1372Q1467,1372,1441,1351Q1415,1330,1415,1225L1415,1214L1415,147Q1415,90,1443,69Q1471,49,1550,49L1567,49L1567,0L1038,0L1038,47L1077,47Q1159,47,1182,68Q1206,90,1206,172L1206,702L471,702L471,172Q471,51,624,48Q634,47,639,47L639,0L113,0L113,49L127,49Q211,49,236,70Q262,91,262,190L262,209L262,1276Q262,1333,236,1352Q210,1372,131,1372L113,1372L113,1421 Z"
      />
<glyph
          id="glyph980"
          unicode="I"
          horiz-adv-x="772"
          d="M659,1421L659,1374L618,1374Q538,1374,515,1353Q492,1332,492,1251L492,172Q492,87,514,67Q536,47,625,47L659,47L659,0L113,0L113,47L141,47Q232,47,256,68Q281,90,281,172L281,1251Q281,1335,260,1354Q239,1374,152,1374L113,1374L113,1421L659,1421 Z"
      />
<glyph
          id="glyph982"
          unicode="J"
          horiz-adv-x="763"
          d="M299,1214L299,1225Q299,1329,272,1350Q246,1372,162,1372L135,1372L135,1421L676,1421L676,1372L637,1372Q562,1372,541,1352Q520,1332,520,1251L520,297Q520,154,507,67Q494,-19,465,-88Q413,-208,326,-272Q240,-336,129,-336Q55,-336,11,-301Q-33,-267,-33,-209Q-33,-161,-6,-131Q20,-102,63,-102Q93,-102,120,-120Q148,-138,168,-170Q178,-186,192,-215Q220,-274,246,-274Q274,-274,286,-243Q299,-212,299,-143L299,1214 Z"
      />
<glyph
          id="glyph984"
          unicode="L"
          horiz-adv-x="1372"
          d="M113,0L113,49L127,49Q211,49,236,70Q262,91,262,190L262,209L262,1233Q262,1330,236,1351Q211,1372,127,1372L113,1372L113,1421L653,1421L653,1374Q534,1371,502,1343Q471,1316,471,1202L471,201Q471,105,503,76Q536,47,649,47L784,47Q975,47,1081,122Q1188,198,1331,457L1376,457L1262,0L113,0 Z"
      />
<glyph
          id="glyph986"
          unicode="M"
          horiz-adv-x="1886"
          d="M297,281Q297,150,331,96Q366,43,446,43L489,43L489,0L59,0L59,43L100,43Q176,43,210,98Q244,153,244,279L244,1296Q233,1340,196,1358Q160,1377,76,1381L76,1421L426,1421L963,274L1454,1421L1784,1421L1784,1372L1769,1372Q1684,1372,1658,1351Q1632,1330,1632,1225L1632,1214L1632,170Q1632,96,1654,76Q1677,56,1784,43L1784,0L1255,0L1256,43Q1358,46,1390,68Q1423,91,1423,172L1423,1229L905,0L862,0L297,1210L297,281 Z"
      />
<glyph
          id="glyph988"
          unicode="S"
          horiz-adv-x="1114"
          d="M188,78L123,4L96,4L96,442L141,442Q155,251,260,141Q365,31,532,31Q663,31,753,115Q844,200,844,322Q844,490,542,601Q496,618,473,627Q292,696,214,790Q137,884,137,1028Q137,1207,258,1326Q380,1446,559,1446Q705,1446,848,1357Q886,1333,897,1333Q908,1333,923,1343Q938,1354,956,1374L985,1374L985,956L944,956Q913,1167,818,1281Q724,1395,582,1395Q467,1395,388,1313Q309,1232,309,1114Q309,1004,370,937Q432,870,612,805Q857,716,938,627Q1020,538,1020,393Q1020,210,890,93Q761,-23,555,-23Q461,-23,370,2Q279,27,188,78 Z"
      />
<glyph
          id="glyph990"
          unicode="T"
          horiz-adv-x="1523"
          d="M866,172Q866,95,893,70Q920,45,993,45Q998,45,1011,46Q1025,47,1032,47L1032,0L492,0L492,47L524,47Q603,47,631,71Q659,96,659,172L659,1372L606,1372Q564,1372,513,1370Q462,1369,359,1364L293,1360Q231,1356,70,1113Q42,1071,27,1049L0,1067L82,1454Q136,1437,195,1429Q255,1421,354,1421L385,1421L1169,1421Q1269,1421,1329,1429Q1390,1437,1444,1454L1526,1067L1499,1049Q1487,1067,1464,1101Q1294,1356,1230,1360L1167,1364Q1064,1369,1013,1370Q962,1372,920,1372L866,1372L866,172 Z"
      />
<glyph
          id="glyph992"
          unicode="U"
          horiz-adv-x="1546"
          d="M250,608L250,1241Q250,1331,223,1351Q196,1371,101,1374L100,1421L627,1421L627,1374L575,1374Q500,1374,479,1352Q459,1331,459,1251L459,401Q459,236,564,132Q669,29,836,29Q1048,29,1151,160Q1255,291,1255,559L1255,1184Q1255,1295,1222,1334Q1190,1374,1110,1374L1067,1374L1067,1421L1485,1421L1485,1374L1448,1374Q1375,1374,1345,1334Q1315,1295,1315,1184L1315,537Q1315,254,1183,114Q1052,-25,784,-25Q610,-25,486,33Q363,91,311,197Q278,264,264,350Q250,437,250,608 Z"
      />
<glyph
          id="glyph994"
          unicode="V"
          horiz-adv-x="1230"
          d="M610,-29L82,1294Q67,1331,47,1349Q27,1367,-2,1370L-63,1374L-63,1421L492,1421L492,1374L428,1370Q363,1365,338,1348Q313,1331,313,1294Q313,1279,317,1262Q321,1245,330,1225L702,283L1039,1197Q1048,1223,1052,1243Q1057,1264,1057,1280Q1057,1330,1019,1351Q981,1372,883,1374L883,1421L1337,1421L1337,1374L1292,1366Q1214,1352,1179,1316Q1144,1281,1106,1180L651,-29L610,-29 Z"
      />
<glyph
          id="glyph996"
          unicode="W"
          horiz-adv-x="1773"
          d="M72,1294Q59,1330,39,1347Q19,1364,-12,1368L-66,1374L-66,1421L479,1421L479,1372L418,1366Q344,1360,323,1344Q303,1329,303,1294Q303,1274,318,1230Q319,1226,319,1225L657,289L909,1030L807,1294Q792,1330,770,1348Q749,1367,721,1368L645,1372L645,1421L1214,1421L1214,1372L1140,1368Q1087,1365,1061,1347Q1036,1329,1036,1292Q1036,1277,1049,1237Q1052,1228,1053,1224L1354,289L1581,1094Q1584,1105,1591,1127Q1618,1221,1618,1260Q1618,1318,1581,1344Q1545,1370,1459,1372L1458,1421L1896,1421L1896,1374L1841,1364Q1774,1349,1741,1310Q1708,1272,1679,1180L1309,-29L1272,-29L938,940L610,-29L569,-29L72,1294 Z"
      />
<glyph
          id="glyph998"
          unicode="Y"
          horiz-adv-x="1058"
          d="M643,209L643,193Q643,92,670,70Q698,49,795,49L795,0L281,0L281,49L295,49Q380,49,406,70Q432,92,432,199L432,209L432,643L70,1274Q38,1329,5,1350Q-27,1372,-78,1375L-78,1421L432,1421L432,1375Q353,1372,322,1358Q291,1344,291,1311Q291,1300,295,1287Q300,1275,309,1262L618,733L864,1157Q898,1215,911,1246Q924,1278,924,1300Q924,1340,897,1357Q871,1375,801,1381L801,1421L1163,1421L1163,1374Q1053,1367,963,1212Q955,1198,950,1190L643,678L643,209 Z"
      />
<glyph
          id="glyph1000"
          unicode="a"
          horiz-adv-x="878"
          d="M551,172L551,481Q362,409,290,354Q219,300,219,233Q219,171,263,130Q308,90,375,90Q413,90,451,107Q490,125,551,172M545,121Q469,49,401,13Q333,-23,270,-23Q184,-23,131,27Q78,78,78,160Q78,270,179,351Q280,432,557,532L557,737Q557,801,529,830Q502,860,442,860Q367,860,311,827Q256,794,256,745Q256,653,233,615Q210,578,156,578Q120,578,99,598Q78,618,78,653Q78,737,221,829Q364,922,508,922Q621,922,668,864Q715,807,715,623L715,129Q715,103,726,88Q737,74,756,74Q778,74,792,92Q806,111,809,143L848,143Q839,65,797,23Q756,-18,686,-18Q625,-18,588,18Q551,54,545,121 Z"
      />
<glyph
          id="glyph1002"
          unicode="b"
          horiz-adv-x="1087"
          d="M326,731L326,301Q326,152,379,88Q432,25,551,25Q679,25,760,144Q842,263,842,451Q842,628,761,735Q680,842,549,842Q486,842,430,814Q375,787,326,731M170,1167Q170,1233,151,1262Q132,1291,76,1313L76,1337Q136,1355,195,1379Q254,1404,311,1436L326,1436L326,797Q406,861,477,888Q549,915,631,915Q801,915,906,791Q1012,668,1012,467Q1012,249,886,115Q761,-18,557,-18Q430,-18,287,34Q252,47,244,47Q238,47,232,42Q227,37,221,27L199,-16L170,-16L170,1167 Z"
      />
<glyph
          id="glyph1004"
          unicode="c"
          horiz-adv-x="909"
          d="M850,268Q790,128,694,52Q598,-23,479,-23Q307,-23,191,110Q76,243,76,446Q76,651,198,786Q321,922,506,922Q637,922,735,851Q834,781,834,690Q834,660,810,638Q787,616,756,616Q695,616,665,734Q661,749,659,756Q642,820,610,847Q579,874,524,874Q401,874,320,770Q240,666,240,506Q240,328,330,212Q420,96,553,96Q637,96,704,143Q771,190,819,283L850,268 Z"
      />
<glyph
          id="glyph1006"
          unicode="d"
          horiz-adv-x="1114"
          d="M770,174L770,504Q770,685,709,776Q649,868,528,868Q407,868,332,758Q258,649,258,471Q258,302,345,191Q432,80,561,80Q622,80,674,103Q726,127,770,174M770,1167Q770,1239,747,1267Q724,1296,662,1309L662,1335Q728,1354,790,1379Q852,1404,911,1436L930,1436L930,170Q930,135,945,119Q961,103,1024,86L1024,63Q945,40,890,21Q836,3,791,-14L772,-14L772,121Q707,48,633,11Q560,-25,479,-25Q315,-25,202,109Q90,243,90,442Q90,659,210,787Q331,915,530,915Q580,915,639,904Q698,894,770,872L770,1167 Z"
      />
<glyph
          id="glyph1008"
          unicode="e"
          horiz-adv-x="995"
          d="M618,662Q654,662,671,677Q688,692,688,723Q688,788,634,831Q581,874,498,874Q408,874,342,818Q277,762,250,662L618,662M864,608L242,608Q234,550,230,516Q227,482,227,457Q227,305,327,204Q427,104,575,104Q683,104,767,161Q851,219,889,317L928,305Q879,151,764,62Q650,-27,500,-27Q317,-27,195,100Q74,228,74,422Q74,648,196,784Q319,920,526,920Q674,920,787,833Q901,746,901,649Q901,627,893,617Q885,608,864,608 Z"
      />
<glyph
          id="glyph1010"
          unicode="f"
          horiz-adv-x="661"
          d="M383,158Q383,79,407,59Q432,39,502,39L543,39L543,0L98,0L99,39Q182,42,205,63Q229,84,229,190L229,780L82,780L104,864L229,864L229,950Q229,1177,327,1306Q425,1436,592,1436Q687,1436,748,1389Q809,1342,809,1274Q809,1237,787,1214Q766,1192,729,1192Q695,1192,674,1207Q653,1222,633,1262Q600,1326,576,1345Q552,1364,516,1364Q442,1364,412,1298Q383,1232,383,1004L383,864L606,864L582,780L383,780L383,158 Z"
      />
<glyph
          id="glyph1012"
          unicode="g"
          horiz-adv-x="964"
          d="M272,-39Q226,-67,201,-110Q176,-154,176,-209Q176,-307,249,-357Q323,-408,467,-408Q662,-408,760,-360Q858,-312,858,-217Q858,-137,800,-101Q742,-65,610,-63L438,-63Q376,-63,341,-57Q306,-52,272,-39M471,365Q554,365,600,432Q647,499,647,618Q647,738,600,806Q553,874,471,874Q387,874,340,806Q293,739,293,618Q293,499,340,432Q387,365,471,365M309,340Q265,316,244,285Q223,255,223,215Q223,149,280,121Q338,94,504,92L615,90Q792,87,878,26Q965,-35,965,-158Q965,-305,837,-380Q710,-455,457,-455Q261,-455,156,-398Q51,-342,51,-238Q51,-169,97,-114Q143,-60,238,-16Q180,18,152,58Q125,98,125,147Q125,204,161,255Q197,307,274,360Q208,407,174,469Q141,532,141,610Q141,746,230,833Q320,920,461,920Q539,920,600,900Q662,880,723,836Q761,868,799,885Q838,903,870,903Q911,903,934,882Q958,861,958,825Q958,802,941,785Q925,768,901,768Q879,768,843,793Q807,819,784,819Q772,819,762,817Q753,815,743,811Q775,762,790,715Q805,669,805,618Q805,483,712,399Q620,315,471,315Q437,315,398,321Q359,327,309,340 Z"
      />
<glyph
          id="glyph1014"
          unicode="h"
          horiz-adv-x="1103"
          d="M82,0L82,38Q149,41,172,65Q195,89,195,190L195,1167Q195,1234,176,1261Q157,1289,100,1313L100,1337Q161,1355,219,1379Q278,1404,336,1436L348,1436L348,758Q419,844,487,883Q556,922,639,922Q788,922,858,821Q928,720,928,504L928,141Q928,71,943,57Q959,44,1040,39L1040,0L668,0L668,39Q730,40,752,60Q774,80,774,166L774,176L774,510Q774,691,729,760Q685,829,580,829Q507,829,449,792Q391,756,348,684L348,158Q348,78,370,58Q392,39,461,39L461,0L82,0 Z"
      />
<glyph
          id="glyph1016"
          unicode="i"
          horiz-adv-x="561"
          d="M166,1329Q166,1375,196,1405Q226,1436,272,1436Q317,1436,348,1405Q379,1374,379,1329Q379,1287,347,1255Q315,1223,272,1223Q229,1223,197,1254Q166,1286,166,1329M365,920L365,158Q365,78,387,58Q409,39,477,39L477,0L90,0L91,39Q159,42,180,66Q201,90,201,190L201,651Q201,718,182,745Q163,773,106,797L106,821Q167,839,225,863Q284,888,342,920L365,920 Z"
      />
<glyph
          id="glyph1018"
          unicode="k"
          horiz-adv-x="1067"
          d="M80,0L80,39Q153,42,173,66Q193,90,193,190L193,1167Q193,1236,173,1262Q154,1288,98,1313L98,1337Q159,1355,217,1379Q276,1404,334,1436L348,1436L348,508L643,733Q664,750,677,768Q690,786,690,799Q690,829,616,841Q600,844,589,846L524,858L524,895L979,895L979,858Q848,829,756,757Q753,755,752,754L549,596L891,162Q942,96,988,67Q1035,39,1090,39L1090,0L627,0L627,39L678,45Q708,50,722,60Q737,71,737,88Q737,97,733,104Q730,112,723,121L430,510L348,446L348,158Q348,77,369,58Q391,39,459,39L459,0L80,0 Z"
      />
<glyph
          id="glyph1020"
          unicode="l"
          horiz-adv-x="555"
          d="M358,158Q358,77,380,58Q402,39,469,39L469,0L90,0L91,39Q160,42,181,66Q203,90,203,190L203,1167Q203,1236,183,1262Q164,1288,109,1313L109,1337Q169,1355,227,1379Q286,1404,344,1436L358,1436L358,158 Z"
      />
<glyph
          id="glyph1022"
          unicode="m"
          horiz-adv-x="1662"
          d="M94,0L95,39Q163,42,184,67Q205,93,205,190L205,651Q205,716,186,744Q167,772,109,797L109,821Q169,839,227,863Q286,888,344,920L354,920L354,758Q425,847,492,884Q559,922,649,922Q746,922,814,872Q883,823,909,735Q978,834,1047,878Q1117,922,1204,922Q1287,922,1352,881Q1417,840,1456,764Q1474,731,1481,688Q1489,646,1489,561L1489,504L1489,119Q1489,74,1511,57Q1533,41,1599,39L1599,0L1235,0L1235,38Q1297,40,1317,60Q1337,81,1337,176L1337,551Q1337,700,1291,763Q1246,827,1141,827Q1074,827,1016,786Q959,745,922,670L922,119Q922,74,944,57Q966,41,1034,39L1034,0L668,0L668,39L676,39Q732,39,752,64Q772,90,772,176L772,553Q772,699,725,763Q678,827,573,827Q507,827,450,786Q393,746,354,670L354,158Q354,79,376,59Q398,39,465,39L465,0L94,0 Z"
      />
<glyph
          id="glyph1024"
          unicode="n"
          horiz-adv-x="1114"
          d="M90,39Q170,45,186,62Q203,80,203,166L203,190L201,651Q201,718,182,745Q163,773,106,797L106,821Q170,841,227,865Q285,889,342,920L360,920L356,758Q433,848,499,885Q566,922,647,922Q796,922,865,822Q934,722,934,504L934,115Q934,72,950,58Q967,44,1048,39L1049,0L674,0L674,39Q747,44,763,56Q780,69,780,115L780,176L780,553Q780,695,733,762Q686,829,586,829Q514,829,457,793Q400,757,356,684L356,158Q356,76,378,57Q400,39,467,39L467,0L90,0L90,39 Z"
      />
<glyph
          id="glyph1026"
          unicode="o"
          horiz-adv-x="983"
          d="M492,25Q608,25,674,138Q741,251,741,449Q741,648,675,759Q609,870,492,870Q375,870,308,758Q242,646,242,449Q242,249,308,137Q375,25,492,25M913,449Q913,236,796,105Q680,-25,492,-25Q303,-25,187,105Q72,235,72,449Q72,662,187,791Q302,920,492,920Q681,920,797,790Q913,661,913,449 Z"
      />
<glyph
          id="glyph1028"
          unicode="p"
          horiz-adv-x="1114"
          d="M346,766L346,420Q346,202,397,115Q449,29,569,29Q693,29,778,139Q864,250,864,416Q864,600,770,720Q676,840,537,840Q488,840,443,822Q398,805,346,766M346,-283Q346,-358,372,-380Q399,-403,498,-403L498,-440L78,-440L78,-403Q152,-399,171,-383Q190,-368,190,-305L190,-250L190,651Q190,716,171,744Q152,772,94,797L94,821Q155,839,213,863Q272,888,330,920L346,920L346,817Q412,866,479,889Q547,913,621,913Q805,913,915,792Q1026,671,1026,467Q1026,258,888,117Q751,-23,545,-23Q495,-23,446,-14Q398,-6,346,12L346,-283 Z"
      />
<glyph
          id="glyph1030"
          unicode="r"
          horiz-adv-x="688"
          d="M91,39Q161,42,182,66Q203,91,203,190L203,651Q203,718,183,745Q163,772,106,797L106,821Q175,844,233,868Q291,892,342,920L356,920L356,772Q403,846,459,886Q515,926,571,926Q620,926,648,899Q676,872,676,825Q676,792,656,771Q636,750,606,750Q585,750,541,767Q498,784,473,784Q437,784,404,760Q372,736,356,696L356,158Q356,76,380,57Q405,39,500,39L500,0L90,0L91,39 Z"
      />
<glyph
          id="glyph1032"
          unicode="s"
          horiz-adv-x="792"
          d="M102,45L102,297L143,297Q172,151,224,87Q276,23,362,23Q441,23,491,74Q541,126,541,205Q541,265,505,309Q469,353,365,408Q201,491,157,545Q113,600,113,678Q113,784,193,852Q274,920,403,920Q468,920,530,902Q593,885,653,850L653,633L612,633Q598,745,536,813Q474,881,389,881Q321,881,279,845Q238,809,238,750Q238,665,364,596Q373,591,379,588Q395,579,429,561Q692,420,692,262Q692,137,596,57Q500,-23,350,-23Q285,-23,222,-5Q160,12,102,45 Z"
      />
<glyph
          id="glyph1034"
          unicode="t"
          horiz-adv-x="755"
          d="M221,793L106,793L106,813Q177,865,240,922Q303,980,360,1044L377,1044L377,895L678,895L625,793L377,793L377,270Q377,167,409,123Q442,80,516,80Q552,80,594,101Q637,122,678,160L696,137Q646,61,577,20Q509,-20,430,-20Q316,-20,268,44Q221,108,221,313L221,793 Z"
      />
<glyph
          id="glyph1036"
          unicode="u"
          horiz-adv-x="1101"
          d="M915,895L915,201Q915,135,932,119Q950,104,1010,100L1010,76Q957,58,899,36Q842,14,774,-14L760,-14L760,139Q685,47,619,11Q554,-25,467,-25Q380,-25,314,15Q248,55,215,127Q197,166,189,214Q182,263,182,360L182,393L182,776Q182,823,162,838Q142,854,68,858L68,895L336,895L336,383Q336,196,381,132Q426,68,537,68Q604,68,662,109Q721,151,760,227L760,737Q760,814,740,836Q720,858,659,858L649,858L649,895L915,895 Z"
      />
<glyph
          id="glyph1038"
          unicode="v"
          horiz-adv-x="935"
          d="M422,-18L127,766Q108,816,81,833Q55,851,-2,854L-2,895L414,895L414,854L391,854Q331,854,307,843Q283,833,283,809Q283,802,287,786Q291,770,299,745L506,186L752,745Q758,761,761,774Q764,788,764,801Q764,822,747,834Q730,847,696,850L643,854L643,895L946,895L946,854Q855,844,792,702Q783,682,778,671L467,-18L422,-18 Z"
      />
<glyph
          id="glyph1040"
          unicode="w"
          horiz-adv-x="1417"
          d="M135,748Q111,811,85,831Q59,852,6,855L6,895L401,895L401,854L340,850Q311,848,296,837Q281,827,281,809Q281,798,284,783Q288,768,297,745L512,190L698,672L670,748Q647,806,618,829Q589,853,541,854L541,895L920,895L920,854L873,850Q845,848,830,837Q815,826,815,809Q815,800,818,785Q822,771,829,745L1008,203L1214,745Q1221,761,1224,774Q1227,788,1227,801Q1227,822,1212,834Q1197,846,1165,850L1116,854L1116,895L1405,895L1405,855Q1348,847,1319,824Q1291,802,1266,735L969,-18L928,-18L721,600L475,-18L432,-18L135,748 Z"
      />
<glyph
          id="glyph1042"
          unicode="x"
          horiz-adv-x="968"
          d="M23,0L23,39L29,39Q96,39,143,67Q190,95,270,205L440,434L178,788Q157,816,131,832Q105,848,74,852L37,858L37,895L451,895L451,858L416,854Q388,851,376,843Q365,836,365,821Q365,811,368,801Q371,792,381,776L539,553L684,762Q690,771,696,789Q702,808,702,817Q702,839,680,848Q659,858,604,858L578,858L578,895L942,895L942,858Q826,858,742,746L735,737L569,518L819,154Q866,86,902,64Q939,43,997,39L997,0L520,0L520,39L588,43Q628,46,647,58Q666,70,666,92Q666,104,658,120Q650,136,625,172L467,391L317,178Q287,133,277,113Q268,94,268,80Q268,59,290,49Q313,39,360,39L389,39L389,0L23,0 Z"
      />
<glyph
          id="glyph1044"
          unicode="y"
          horiz-adv-x="933"
          d="M-24,858L-25,895L412,895L412,858L363,854Q308,851,287,839Q266,827,266,801Q266,793,270,782Q274,771,283,755L569,217L741,731Q746,746,749,762Q752,778,752,793Q752,830,722,844Q693,858,604,858L604,895L950,895L950,858Q885,852,857,831Q829,811,801,733L467,-211L465,-217Q386,-442,281,-442Q240,-442,216,-417Q193,-393,193,-352Q193,-318,216,-295Q240,-272,276,-272Q287,-272,310,-277Q334,-283,346,-283Q372,-283,388,-269Q404,-256,416,-223L502,23L106,748Q71,813,44,834Q17,855,-24,858 Z"
      />
<glyph
          id="glyph1046"
          unicode="’"
          horiz-adv-x="516"
          d="M174,944Q254,1016,289,1066Q324,1117,324,1161Q324,1201,261,1222Q244,1228,235,1231Q183,1250,159,1277Q135,1305,135,1346Q135,1390,166,1418Q197,1446,246,1446Q316,1446,363,1386Q410,1327,410,1235Q410,1145,359,1064Q308,983,205,907L174,944 Z"
      />
<glyph
          id="glyph1048"
          unicode="“"
          horiz-adv-x="901"
          d="M735,1411Q653,1337,618,1287Q584,1237,584,1194Q584,1154,647,1133Q662,1128,672,1124Q724,1105,749,1076Q774,1048,774,1008Q774,963,743,935Q713,907,664,907Q593,907,545,967Q498,1027,498,1118Q498,1207,549,1288Q600,1369,705,1446L735,1411M350,1411Q270,1339,235,1288Q201,1238,201,1194Q201,1154,264,1133Q279,1128,289,1124Q341,1105,366,1076Q391,1048,391,1008Q391,963,360,935Q330,907,281,907Q210,907,162,967Q115,1027,115,1118Q115,1208,165,1289Q216,1370,319,1446L350,1411 Z"
      />
<glyph
          id="glyph1050"
          unicode="”"
          horiz-adv-x="901"
          d="M557,944Q639,1018,674,1068Q709,1118,709,1161Q709,1201,646,1222Q629,1228,620,1231Q568,1250,543,1278Q518,1306,518,1346Q518,1390,549,1418Q580,1446,629,1446Q700,1446,747,1386Q795,1326,795,1235Q795,1146,743,1065Q692,984,588,907L557,944M174,944Q254,1016,289,1066Q324,1117,324,1161Q324,1201,261,1222Q244,1228,235,1231Q183,1250,159,1277Q135,1305,135,1346Q135,1390,166,1418Q197,1446,246,1446Q316,1446,363,1386Q410,1327,410,1235Q410,1145,359,1064Q308,983,205,907L174,944 Z"
      />
</font
    >
<font
        id="font1052"
        horiz-adv-x="0"
      ><font-face
          id="font-face1054"
          font-family="fnt1"
          ascent="626"
          units-per-em="1000"
          descent="-142"
      />
<missing-glyph
          id="missing-glyph1056"
          horiz-adv-x="1.1346e-306"
      />
<glyph
          id="glyph1058"
          unicode=" "
          horiz-adv-x="600"
          d="M0 0 Z"
      />
<glyph
          id="glyph1060"
          unicode=","
          horiz-adv-x="600"
          d="M385,163L240,163L153,-100L263,-100L385,163 Z"
      />
<glyph
          id="glyph1062"
          unicode="."
          horiz-adv-x="600"
          d="M395,70C395,109,363,153,301,153C243,153,206,111,206,69C206,43,231,-12,303,-12C355,-12,395,25,395,70 Z"
      />
<glyph
          id="glyph1064"
          unicode="B"
          horiz-adv-x="600"
          d="M555,162C555,208,537,255,496,280L464,300C502,330,521,371,521,416C521,483,475,572,327,572L36,572L36,479L114,479L114,93L36,93L36,0L365,0C488,0,555,74,555,162M430,413C430,350,355,342,334,342L206,342L206,479L339,479C407,479,430,443,430,413M463,168C463,107,399,93,370,93L206,93L206,249L318,249C355,249,463,249,463,168 Z"
      />
<glyph
          id="glyph1066"
          unicode="C"
          horiz-adv-x="600"
          d="M567,77L511,145C479,123,408,80,328,80C198,80,145,183,145,288C145,441,255,492,326,492C378,492,429,472,472,445L472,350L564,350L564,583L472,583L472,541C459,551,408,583,325,583C167,583,52,459,52,289C52,174,117,-12,331,-12C370,-12,491,8,567,77 Z"
      />
<glyph
          id="glyph1068"
          unicode="D"
          horiz-adv-x="600"
          d="M563,297C563,392,530,497,435,546C396,566,351,572,307,572L26,572L26,479L105,479L105,93L26,93L26,0L283,0C431,0,563,68,563,297M471,293C471,225,452,153,394,116C360,95,322,93,279,93L197,93L197,479L310,479C427,479,471,395,471,293 Z"
      />
<glyph
          id="glyph1070"
          unicode="E"
          horiz-adv-x="600"
          d="M551,0L551,209L458,209L458,93L219,93L219,245L325,245L325,179L418,179L418,403L325,403L325,337L219,337L219,479L458,479L458,360L551,360L551,572L50,572L50,479L127,479L127,93L48,93L48,0L551,0 Z"
      />
<glyph
          id="glyph1072"
          unicode="G"
          horiz-adv-x="600"
          d="M585,186L585,279L307,279L307,186L449,186L449,97L415,89C386,82,357,80,327,80C272,80,219,94,181,137C148,175,135,229,135,282C135,422,222,492,314,492C374,492,408,471,457,441L457,349L550,349L550,583L457,583L457,537C418,562,383,583,313,583C161,583,41,462,41,278C41,89,178,-12,328,-12C420,-12,520,31,540,39L540,186L585,186 Z"
      />
<glyph
          id="glyph1074"
          unicode="H"
          horiz-adv-x="600"
          d="M579,0L579,93L503,93L503,479L579,479L579,572L333,572L333,479L411,479L411,341L193,341L193,479L272,479L272,572L25,572L25,479L101,479L101,93L25,93L25,0L272,0L272,93L193,93L193,248L411,248L411,93L333,93L333,0L579,0 Z"
      />
<glyph
          id="glyph1076"
          unicode="I"
          horiz-adv-x="600"
          d="M512,0L512,93L350,93L350,479L512,479L512,572L90,572L90,479L255,479L255,93L90,93L90,0L512,0 Z"
      />
<glyph
          id="glyph1078"
          unicode="K"
          horiz-adv-x="600"
          d="M575,0L575,93L474,93C451,137,426,175,397,218C378,247,333,301,319,318L485,479L549,479L549,572L321,572L321,479L362,479L201,324L201,479L279,479L279,572L30,572L30,479L109,479L109,93L30,93L30,0L279,0L279,93L201,93L201,205L257,259C281,232,309,194,327,168C364,114,400,52,424,0L575,0 Z"
      />
<glyph
          id="glyph1080"
          unicode="N"
          horiz-adv-x="600"
          d="M605,479L605,572L343,572L343,479L436,479L436,175L193,572L14,572L14,479L90,479L90,93L14,93L14,0L279,0L279,93L182,93L182,408L440,0L528,0L528,479L605,479 Z"
      />
<glyph
          id="glyph1082"
          unicode="S"
          horiz-adv-x="600"
          d="M532,164C532,193,524,223,509,246C457,324,356,313,275,325C249,329,183,340,183,400C183,443,229,491,311,491C349,491,387,480,420,464L420,368L512,368L512,583L420,583L420,560C387,575,347,583,307,583C164,583,90,482,90,400C90,353,111,309,151,278C208,234,286,235,360,229C410,225,441,208,441,164C441,115,402,79,305,79C255,79,208,95,166,120L166,196L74,196L74,-13L166,-13L166,23C186,14,231,-13,305,-13C429,-13,532,54,532,164 Z"
      />
<glyph
          id="glyph1084"
          unicode="T"
          horiz-adv-x="600"
          d="M563,354L563,572L40,572L40,354L133,354L133,479L255,479L255,93L135,93L135,0L469,0L469,93L348,93L348,479L470,479L470,354L563,354 Z"
      />
<glyph
          id="glyph1086"
          unicode="U"
          horiz-adv-x="600"
          d="M598,479L598,572L336,572L336,479L430,479L430,215C430,128,407,81,307,81C198,81,190,145,190,198L190,479L282,479L282,572L20,572L20,479L98,479L98,207C98,135,105,66,174,22C220,-7,261,-12,309,-12C352,-12,393,-2,431,15C495,44,522,118,522,186L522,479L598,479 Z"
      />
<glyph
          id="glyph1088"
          unicode="V"
          horiz-adv-x="600"
          d="M601,479L601,572L354,572L354,479L444,479L308,121L168,479L245,479L245,572L-1,572L-1,479L73,479L260,0L353,0L534,479L601,479 Z"
      />
<glyph
          id="glyph1090"
          unicode="W"
          horiz-adv-x="600"
          d="M606,479L606,572L378,572L378,479L471,479L437,195L336,466L270,466L170,193L135,479L227,479L227,572L-2,572L-2,479L45,479L109,0L188,0L301,301L416,0L494,0L559,479L606,479 Z"
      />
<glyph
          id="glyph1092"
          unicode="X"
          horiz-adv-x="600"
          d="M575,0L575,93L511,93L354,299L491,479L557,479L557,572L342,572L342,479L386,479L303,369L218,479L270,479L270,572L42,572L42,479L109,479L248,299L89,93L25,93L25,0L271,0L271,93L195,93L300,230L403,93L343,93L343,0L575,0 Z"
      />
<glyph
          id="glyph1094"
          unicode="a"
          horiz-adv-x="600"
          d="M564,0L564,93L487,93L487,259C487,296,487,336,472,368C435,448,323,448,303,448C230,448,155,423,91,396L127,316C182,338,240,355,299,355C323,355,397,353,397,293L397,281C363,285,324,288,289,288C67,288,58,151,58,132C58,67,118,-12,230,-12C274,-12,324,2,352,19C352,19,382,38,397,47L397,0L564,0M397,158C351,115,294,81,229,81C189,81,150,99,150,131C150,180,224,196,275,196C331,196,368,190,397,188L397,158 Z"
      />
<glyph
          id="glyph1096"
          unicode="b"
          horiz-adv-x="600"
          d="M553,219C553,336,457,448,321,448C269,448,218,431,180,397L180,621L9,621L9,528L88,528L88,93L10,93L10,0L180,0L180,38C217,11,253,-12,324,-12C464,-12,553,104,553,219M460,220C460,143,398,80,317,80C275,80,177,106,177,216C177,289,219,355,319,355C419,355,460,270,460,220 Z"
      />
<glyph
          id="glyph1098"
          unicode="d"
          horiz-adv-x="600"
          d="M590,0L590,93L514,93L514,621L303,621L303,528L422,528L422,399C385,432,331,448,278,448C141,448,45,338,45,217C45,94,145,-12,282,-12C334,-12,385,4,424,36L424,0L590,0M422,216C422,97,313,81,280,81C203,81,138,141,138,219C138,297,201,355,284,355C335,355,391,325,408,284C417,264,422,240,422,216 Z"
      />
<glyph
          id="glyph1100"
          unicode="e"
          horiz-adv-x="600"
          d="M559,61L517,137C456,106,386,80,313,80C195,80,163,142,158,176L539,176C540,186,542,221,542,242C542,364,437,447,311,447C196,447,65,369,65,215C65,97,149,-12,313,-12C400,-12,488,19,559,61M452,269L165,269C185,327,248,354,306,354C362,354,422,339,448,284L452,269 Z"
      />
<glyph
          id="glyph1102"
          unicode="g"
          horiz-adv-x="600"
          d="M578,342L578,435L410,435L410,404C373,434,324,447,274,447C131,447,32,350,32,228C32,105,130,11,271,11C321,11,372,25,410,55L410,16C410,-43,407,-90,292,-90C219,-90,127,-66,89,-55L67,-149C150,-168,221,-184,295,-184C480,-184,501,-86,501,22L501,342L578,342M410,227C410,151,354,104,269,104C197,104,126,155,126,230C126,303,192,354,270,354C351,354,410,306,410,227 Z"
      />
<glyph
          id="glyph1104"
          unicode="h"
          horiz-adv-x="600"
          d="M588,0L588,93L511,93L511,282C511,314,507,345,494,373C488,386,457,447,356,447C299,447,254,426,208,400L208,621L39,621L39,528L116,528L116,93L39,93L39,0L283,0L283,93L208,93L208,297C276,346,328,355,355,355C407,355,419,322,419,289L419,93L343,93L343,0L588,0 Z"
      />
<glyph
          id="glyph1106"
          unicode="i"
          horiz-adv-x="600"
          d="M350,493L350,642L244,642L244,493L350,493M514,0L514,93L350,93L350,434L117,434L117,341L257,341L257,93L90,93L90,0L514,0 Z"
      />
<glyph
          id="glyph1108"
          unicode="m"
          horiz-adv-x="600"
          d="M615,0L615,93L558,93L558,312C558,386,509,447,428,447C387,447,346,429,320,399C294,440,257,447,234,447C203,447,173,435,154,412L154,434L-15,434L-15,341L62,341L62,93L-15,93L-15,0L232,0L232,93L154,93L154,321C172,338,195,354,219,354C256,354,264,323,264,303L264,0L416,0L416,93L356,93L356,313C380,345,407,354,424,354C457,354,466,326,466,316L466,0L615,0 Z"
      />
<glyph
          id="glyph1110"
          unicode="n"
          horiz-adv-x="600"
          d="M576,0L576,93L501,93L501,306C501,337,491,366,476,391C445,433,397,447,345,447C291,447,235,429,194,402L194,434L23,434L23,341L102,341L102,93L25,93L25,0L272,0L272,93L194,93L194,300C243,343,307,355,336,355C403,355,409,324,409,285L409,93L333,93L333,0L576,0 Z"
      />
<glyph
          id="glyph1112"
          unicode="o"
          horiz-adv-x="600"
          d="M555,218C555,331,473,448,301,448C171,448,44,369,44,216C44,47,197,-12,306,-12C421,-12,555,56,555,218M462,220C462,123,382,81,304,81C245,81,138,107,138,217C138,302,209,355,298,355C417,355,462,280,462,220 Z"
      />
<glyph
          id="glyph1114"
          unicode="p"
          horiz-adv-x="600"
          d="M558,221C558,378,424,447,327,447C274,447,220,430,182,398L182,433L12,433L12,340L90,340L90,-90L14,-90L14,-183L324,-183L324,-90L182,-90L182,38C202,23,254,-12,331,-12C463,-12,558,92,558,221M466,219C466,136,398,80,325,80C281,80,178,107,178,219C178,334,286,354,326,354C400,354,466,306,466,219 Z"
      />
<glyph
          id="glyph1116"
          unicode="r"
          horiz-adv-x="600"
          d="M569,334C569,353,563,370,557,386C548,411,518,448,449,448C380,448,320,404,270,364L270,434L69,434L69,341L177,341L177,93L70,93L70,0L452,0L452,93L270,93L270,252C306,282,342,310,383,333C403,344,427,355,449,355C474,355,478,345,481,320L569,334 Z"
      />
<glyph
          id="glyph1118"
          unicode="s"
          horiz-adv-x="600"
          d="M524,132C524,205,468,249,404,254L279,264C255,266,188,272,188,309C188,350,273,355,295,355C336,355,380,346,413,330L413,274L505,274L505,448L413,448L413,425C377,439,331,448,287,448C200,448,100,410,100,311C100,190,240,180,310,174C346,171,390,176,421,159C432,153,435,143,435,132C435,98,372,81,319,81C253,81,204,97,179,106L179,176L87,176L87,-12L179,-12L179,17C222,0,273,-12,324,-12C435,-12,524,44,524,132 Z"
      />
<glyph
          id="glyph1120"
          unicode="t"
          horiz-adv-x="600"
          d="M547,48L531,140C495,124,395,80,330,80C255,80,250,124,250,167L250,341L488,341L488,434L250,434L250,567L157,567L157,434L94,434L94,341L157,341L157,145C157,8,259,-12,329,-12C405,-12,482,20,547,48 Z"
      />
<glyph
          id="glyph1122"
          unicode="u"
          horiz-adv-x="600"
          d="M573,0L573,93L496,93L496,434L328,434L328,341L404,341L404,140C371,109,334,79,274,79C194,79,191,133,191,156L191,434L22,434L22,341L100,341L100,158C100,120,104,98,110,81C133,15,209,-12,272,-12C322,-12,367,6,404,31L404,0L573,0 Z"
      />
<glyph
          id="glyph1124"
          unicode="x"
          horiz-adv-x="600"
          d="M581,0L581,93L501,93L359,227L477,341L556,341L556,434L341,434L341,341L358,341L300,285L238,341L258,341L258,434L32,434L32,341L114,341L236,225L100,93L18,93L18,0L250,0L250,93L221,93L298,169L376,93L349,93L349,0L581,0 Z"
      />
</font
    >
<clipPath
        id="clp9"
      >
<path
          id="path180"
          d="m147.25 763.68h431.9v-377.3h-431.9v377.3z"
      />
</clipPath
    >
</defs
  >
<style
      id="style1126"
      type="text/css"
  />
<metadata
    ><rdf:RDF
      ><cc:Work
        ><dc:format
          >image/svg+xml</dc:format
        ><dc:type
            rdf:resource="http://purl.org/dc/dcmitype/StillImage"
        /><cc:license
            rdf:resource="http://creativecommons.org/licenses/publicdomain/"
        /><dc:publisher
          ><cc:Agent
              rdf:about="http://openclipart.org/"
            ><dc:title
              >Openclipart</dc:title
            ></cc:Agent
          ></dc:publisher
        ><dc:title
          >sunquad clubhouse</dc:title
        ><dc:date
          >2006-10-15T23:50:07</dc:date
        ><dc:description
          >an image from the US government EPA "Sunwise" program. I converted it from PDF format, and removed all the "sunwise" logos. the source link is here - http://www.epa.gov/sunwise/doc/mission_story.pdf</dc:description
        ><dc:source
          >https://openclipart.org/detail/648/sunquad-clubhouse-by-ryanlerch</dc:source
        ><dc:creator
          ><cc:Agent
            ><dc:title
              >ryanlerch</dc:title
            ></cc:Agent
          ></dc:creator
        ><dc:subject
          ><rdf:Bag
            ><rdf:li
              >child</rdf:li
            ><rdf:li
              >classroom</rdf:li
            ><rdf:li
              >clubhouse</rdf:li
            ><rdf:li
              >epa</rdf:li
            ><rdf:li
              >epa sunwise</rdf:li
            ><rdf:li
              >kids</rdf:li
            ></rdf:Bag
          ></dc:subject
        ></cc:Work
      ><cc:License
          rdf:about="http://creativecommons.org/licenses/publicdomain/"
        ><cc:permits
            rdf:resource="http://creativecommons.org/ns#Reproduction"
        /><cc:permits
            rdf:resource="http://creativecommons.org/ns#Distribution"
        /><cc:permits
            rdf:resource="http://creativecommons.org/ns#DerivativeWorks"
        /></cc:License
      ></rdf:RDF
    ></metadata
  ></svg
>
</font>
</defs>
</svg>
